#TITLE:The Wings Of The Hydra;
#SUBTITLE:By Hellowen66601@hotmail.com;
#ARTIST:Therion;
#TITLETRANSLIT:;
#SUBTITLETRANSLIT:;
#ARTISTTRANSLIT:;
#CREDIT:;
#BANNER:Banner.bmp;
#BACKGROUND:Background.bmp;
#LYRICSPATH:By Hellowen66601@hotmail.com.lrc;
#CDTITLE:Hellowen66601@hotmail.com.bmp;
#MUSIC:The Wings Of The Hydra.mp3;
#OFFSET:0.000;
#SAMPLESTART:100.000;
#SAMPLELENGTH:12.000;
#SELECTABLE:YES;
#BPMS:0.000=150.000,40.375=170.000,137.250=100.000,149.000=251.441,162.250=275.000,178.125=300.000,210.000=200.000,283.375=100.000,294.750=200.000,337.875=100.000,340.750=150.000,369.750=200.000,375.250=250.000,382.250=300.000,389.875=310.000,401.500=349.999,411.125=399.998,421.875=200.000,427.125=149.999,482.375=99.999,493.000=200.000,497.375=240.000,503.125=279.999,509.500=319.999,517.125=359.999,525.500=399.998,535.625=439.997,546.500=459.997,557.813=454.397,557.833=459.197,557.875=412.138,557.938=230.000,602.375=299.999,645.625=349.999,716.625=283.980,716.688=202.720,716.750=169.060,716.813=105.019,716.875=81.399,716.938=78.579;
#STOPS:390.000=0.600
,390.375=0.480
;
#BGCHANGES:;
// cache tags:
#FIRSTBEAT:1.500;
#LASTBEAT:717.000;
#SONGFILENAME:Songs/Music V.I.P ^_^/Therion - The Wings Of The Hydra/The Wings Of The Hydra.sm;
#HASMUSIC:1;
#HASBANNER:1;
#MUSICLENGTH:213.211;
// end cache tags

//---------------dance-single - Desparche----------------
#NOTES:
     dance-single:
     Desparche:
     Hard:
     10:
     1.000,1.000,1.000,1.000,1.000,1048.000,262.000,854.000,0.000,34.000:
0000
0000
0000
0000
0000
0000
0000
0000
0000
0000
0000
0000
0022
0033
0000
0000
0000
0220
0330
0000
0000
2002
3003
0000
0000
0000
0202
0303
0000
0000
0000
2020
,
3030
0000
0000
0000
0202
0303
0000
0000
0000
0220
0330
0000
0000
0000
0000
2022
0000
3033
0000
0000
0210
0000
0300
0000
0000
0000
0000
0000
0000
0000
0000
0000
,
0000
0000
0000
0000
0000
0000
0000
0000
0000
0000
0000
0000
0000
0000
0000
0000
0000
0000
0000
0000
0000
0000
0000
0000
0000
0000
0000
2200
3300
0000
0000
0000
,
0202
0303
0000
0000
0000
0022
0033
0000
0000
0220
0330
0000
0000
0000
2002
3003
0000
0000
0000
2020
3030
0000
0000
0000
0202
0303
0000
0000
0000
0222
0000
0333
,
0000
2001
3000
0000
0000
0000
0000
0000
0000
0000
0000
0000
0000
0000
0000
0000
,
0000
0000
0000
0000
0000
0000
0000
0000
0000
0220
0330
0000
0000
0000
2002
3003
0000
0000
0022
0033
0000
0000
0000
0202
0303
0000
0000
0000
2020
3030
0000
0000
,
0000
0220
0330
0000
0000
0000
2200
3300
0000
0000
0000
0022
0033
0000
0000
0000
2220
0000
3330
0000
0000
0220
0330
0000
0000
0000
2002
3003
0000
0000
0000
2020
,
3030
0000
0000
0000
0202
0303
0000
0000
0000
0022
0033
0000
0000
2200
3300
0000
0000
0000
0202
0303
0000
0000
0000
2202
3303
0000
0000
0000
0022
0033
0000
0000
,
0000
2200
3300
0000
0000
0000
0220
0330
0000
0000
0000
2002
3003
0000
0000
0000
0022
0033
0000
0000
2200
3300
0000
0000
0000
0220
0330
0000
0000
0000
2022
0000
,
3033
0000
0000
0100
0000
0000
0000
0010
0000
0000
0000
2202
0000
3303
0000
0000
0000
0010
0000
0000
0000
0000
1000
0000
0000
0000
0222
0000
0333
1000
0000
0000
,
0100
0000
0000
0021
0000
0000
0000
0000
0000
0000
0000
0000
0000
0030
0000
0200
0000
0000
0000
0300
0000
2000
0000
0000
0000
3000
0020
0000
0000
0000
0030
0002
,
0000
0000
0000
0003
0200
0000
0000
0000
0300
0000
2000
0000
0000
0000
3000
0000
0002
0000
0000
0000
0000
0020
0000
0000
0000
0000
0000
0033
0000
0000
0000
0000
,
0000
2000
0000
0000
0000
0000
0020
0000
0000
0000
0000
0000
3030
0000
0000
0000
0002
0000
0000
0000
0000
0200
0000
0000
0000
0303
0000
0000
0000
2002
0000
0000
,
0000
0000
0000
0000
0000
3003
0000
0120
0000
0000
0000
0030
2000
0000
0000
0000
0000
3000
0200
0000
0000
0000
0300
2000
0000
0000
0000
3000
0002
0000
0000
0000
,
0003
0020
0000
0000
0000
0000
0030
2000
0000
0000
0000
0000
0020
0000
0000
0000
0000
0000
0000
0000
0000
3030
0000
0002
0000
0000
0000
0000
0000
0200
0000
0000
,
0000
0000
0303
0000
0000
0002
0000
0000
0000
0000
0000
2000
0000
0000
0000
3003
0000
0220
0000
0000
0000
0000
0000
0000
0000
0000
0330
2000
0000
0000
0000
0000
,
3000
0020
0000
0000
0000
0030
0002
0000
0000
0000
0003
0200
0000
0000
0000
0300
0020
0000
0000
0000
0000
0030
2000
0000
0000
0000
0000
3000
0200
0000
0000
0000
,
0000
0020
0000
0000
0000
0000
0000
0000
0000
0000
0330
0000
0000
0002
0000
0000
0000
0000
0020
0000
0000
0000
0000
0000
0000
0000
0000
0033
0000
2000
0000
0000
,
0000
0000
0020
0000
0000
0000
0000
3030
0202
0000
0000
0000
0000
0000
0000
0000
0000
0303
0000
0020
0000
0000
0000
0030
2000
0000
0000
0000
0000
3000
0002
0000
,
0000
0000
0003
0200
0000
0000
0000
0300
0020
0000
0000
0000
0000
0030
2000
0000
0000
0000
3000
0200
0000
0000
0300
0020
0000
0000
0000
0000
0000
0030
0000
0000
,
0000
0000
0002
0000
0000
0000
0000
0000
0200
0000
0000
0000
0000
0000
0000
0000
0000
0303
0020
0000
0000
0000
0000
2000
0000
0000
0000
0000
3030
0202
0000
0000
,
0303
0010
0001
0010
0100
1000
0100
0010
0001
0010
0100
1000
0100
0010
0001
0010
,
0100
0000
2020
3030
0000
0000
0000
0000
0000
0000
0000
0000
0000
0000
0022
0033
0000
0000
0000
0000
0000
0000
0000
0000
2002
3003
0000
0000
0000
0000
0000
0000
,
0000
0000
0000
0000
0000
0222
0000
0000
0000
0000
0333
0000
0000
2220
0000
0000
3330
0000
0000
0000
0000
0210
0000
0000
0000
0300
2000
0000
0000
0000
3000
0002
,
0000
0000
0000
0000
0003
0200
0000
0000
0000
0000
0300
0020
0000
0000
0000
0000
0030
2000
0000
0000
0000
0000
3000
0002
0000
0000
0000
0000
0003
2000
0000
0000
,
0000
0000
0002
0000
0000
0000
0000
0000
0000
0000
0000
0000
3003
0020
0000
0000
0000
0000
0000
0200
0000
0000
0000
0000
0000
0000
0000
0330
0000
0000
2002
0000
,
0000
0000
0000
3003
0020
0000
0000
0000
0030
2020
0000
0000
0000
0000
0000
0000
0000
0000
0000
0000
0000
3030
0201
0000
0000
0000
0300
0020
0000
0000
0000
0030
,
2000
0000
0000
0000
3000
0002
0000
0000
0000
0003
0020
0000
0000
0000
0030
2000
0000
0000
0000
0000
3000
0020
0000
0000
0000
0000
0002
0000
0000
0000
0000
0000
,
0000
0000
0033
0000
0200
0000
0000
0000
0000
0000
2000
0000
0000
0000
0000
0000
0000
0000
0000
3300
0220
0000
0000
0000
0330
2000
0000
0000
0000
0000
3000
0220
,
0000
0000
0000
0000
0000
0000
0000
0000
0000
0000
0330
2001
0000
0000
0000
3000
0020
0000
0000
0000
0030
0200
0000
0000
0000
0000
0300
0002
0000
0000
0000
0003
,
2000
0000
0000
0000
0000
3000
0200
0000
0000
0000
0300
0000
0020
0000
0000
0000
2000
0000
0000
0000
0000
0000
0000
0000
0000
3030
0000
0002
0000
0000
0000
0000
,
0200
0000
0000
0000
0000
0000
0000
0000
0000
0303
0000
0000
0000
0020
0000
0000
0030
2002
0000
0000
0000
3003
0220
0000
0000
0000
0000
0000
0000
0000
0000
0000
,
0330
2010
0000
0000
0000
3000
0020
0000
0000
0000
0000
0030
0200
0000
0000
0000
0300
0002
0000
0000
0000
0000
0003
2000
0000
0000
0000
3000
0002
0000
0000
0000
,
0000
0003
0020
0000
0000
0000
0000
2000
0000
0000
0000
0000
0000
0000
0000
3030
0000
0200
0000
0000
0000
0000
0002
0000
0000
0000
0000
0000
0000
0303
0000
0020
,
0000
0000
0000
0000
0200
0000
0000
0000
0330
0000
2002
3003
0000
0000
0000
0020
0000
0000
0000
0230
0000
0000
0302
0000
0000
0000
0000
2023
0000
0000
0000
0000
,
0000
0000
0000
0000
0000
3030
0000
0002
0000
0000
0000
0000
0203
0000
0000
2300
0000
0000
0000
3020
0000
0000
0000
0032
0000
0000
0000
0203
0000
0000
0000
0000
,
0322
0000
0000
0000
0000
0000
0000
0000
0000
0000
0000
0000
0000
0000
0000
0000
0033
0000
0000
0000
0000
0200
0000
0000
0000
2300
0000
0000
0000
0000
3002
0000
,
0000
0203
0000
0000
0000
2320
0000
0000
3232
0303
0000
0000
0000
0020
0030
0000
0200
0300
0000
0002
0003
0000
2200
3300
0000
0002
0003
0000
0200
0300
0000
0020
,
0030
0000
0200
0300
0000
2000
3000
0000
0020
0030
0000
0002
0003
0000
0020
0030
0000
2002
3003
0000
0200
0300
0000
0020
0030
0000
0200
0300
0000
2000
3000
0000
,
0020
0030
0000
2000
3000
0000
0200
0300
0000
2002
3003
0000
0200
0300
0000
0020
0030
0000
0200
0300
0000
2000
3000
0000
0020
0030
0000
0200
0300
0000
0020
0030
,
0000
2000
3000
0000
0220
0330
0000
0002
0003
0000
0200
0300
0000
0020
0030
0000
0200
0300
0000
0002
0003
0000
0000
0200
0300
0000
0000
0020
0030
0000
0000
0200
,
0300
0000
0000
0022
0033
0000
0000
0002
0003
0000
0000
2000
3000
0000
0000
0200
0300
0000
0000
0002
0003
0000
0000
0200
0300
0000
0000
2000
3000
0000
0000
0202
,
0303
0000
0000
0020
0030
0000
0000
0200
0300
0000
0000
2000
3000
0000
0000
0020
0030
0000
0000
0002
0003
0000
0000
0200
0300
0000
0000
2020
3030
0000
0000
0002
,
0003
0000
0000
0020
0030
0000
0000
0200
0300
0000
0000
2000
3000
0000
0000
0200
0300
0000
0000
0020
0030
0000
0000
0200
0300
0000
0000
0022
0033
0000
0000
0200
,
0300
0000
0000
2000
3000
0000
0000
0020
0030
0000
0000
2000
3000
0000
0000
0002
0003
0000
0000
2000
3000
0000
0000
0220
0330
0000
0000
2000
3000
0000
0000
0002
,
0003
0000
0000
2000
3000
0000
0000
0020
0030
0000
0000
2000
3000
0000
0000
0002
0003
0000
0000
2000
3000
0000
0000
0202
0303
0000
0000
2000
3000
0000
0000
0200
,
0300
0000
0000
0020
0030
0000
0000
0200
0300
0000
0000
2000
3000
0000
0000
0200
0300
0000
0000
2000
3000
0000
0000
0200
0300
0000
0000
0022
0033
0000
0000
0200
,
0300
0000
0000
0020
0030
0000
0000
0002
0003
0000
0000
2000
3000
0000
0000
0002
0003
0000
0000
0020
0030
0000
0000
2200
3300
0000
0000
0020
0030
0000
0000
0002
,
0003
0000
0000
2000
3000
0000
0000
0020
0030
0000
0000
0002
0003
0000
0000
0200
0300
0000
0000
2000
3000
0000
0000
0200
0300
0000
0000
0022
0033
0000
0000
0200
,
0300
0000
0000
2000
3000
0000
0000
0020
0030
0000
0000
2000
3000
0000
0000
0002
0003
0000
0000
2000
3000
0000
0000
0020
0030
0000
0000
2002
3003
0000
0000
0020
,
0030
0000
0000
0200
0300
0000
0000
0020
0030
0000
0000
0002
0003
0000
0000
0200
0300
0000
0000
2000
3000
0000
0000
0020
0030
0000
0000
2200
3300
0000
0000
0002
,
0003
0000
0000
0020
0030
0000
0000
0200
0300
0000
0000
2000
3000
0000
0000
0020
0030
0000
0000
0002
0003
0000
0000
0020
0030
0000
0000
2002
3003
0000
0000
0200
,
0300
0000
0000
2000
3000
0000
0000
0020
0030
0000
0000
0002
0003
0000
0000
0020
2130
0000
0000
0000
0000
0000
3000
0020
0000
0000
0000
0000
0030
0200
0000
0000
,
0000
0300
2000
0000
0000
0000
0000
3000
0020
0000
0000
0000
0000
0030
0002
0000
0000
0000
0003
0200
0000
0000
0000
0000
0000
0300
0002
0000
0000
0000
0000
0000
,
0200
0000
0000
0000
0000
0000
0000
0303
0000
0000
0000
0000
0000
0000
0000
0000
0000
0000
0020
0000
0000
0000
0000
0000
0002
0000
0000
0000
0033
0000
0000
0000
,
0000
0000
0000
0200
0000
0000
0000
0000
0000
0000
0020
0000
0000
0000
0000
0330
0000
2000
0000
0000
0000
0000
3000
0002
0000
0000
0000
0000
0003
0020
0000
0000
,
0000
0000
0030
0200
0000
0000
0000
0300
0002
0000
0000
0000
0000
0003
2000
0000
0000
0000
3000
0020
0000
0000
0000
0000
0030
0001
0000
0000
0000
0000
0000
2000
,
0000
0000
0000
0000
0002
0000
3003
0000
0000
0000
0200
0000
0000
0000
0000
0000
0020
0000
0330
0000
0000
0000
2000
0000
0000
0000
0000
3000
0002
0000
0000
0000
,
0000
0003
0200
0000
0000
0000
0000
0002
0000
0303
0000
0000
0000
2020
0000
0000
0000
0000
0000
0000
0000
0000
0000
0000
3030
0000
0201
0000
0000
0000
0000
0000
,
0300
0020
0000
0000
0000
0000
0030
2000
0000
0000
0000
0000
0000
3000
0020
0000
0000
0000
0000
0000
0030
0200
0000
0000
0000
0000
0300
0002
0000
0000
0000
0003
,
0200
0000
0000
0000
0000
0000
0000
2000
0000
0000
0000
0000
3300
0000
0000
0000
0000
0000
0000
0020
0000
0000
0000
0000
0000
0200
0000
0000
0000
0000
0330
0000
,
0000
0000
0000
0000
0000
2000
0000
0000
0000
0000
0000
0022
0000
0033
0000
0000
0000
0202
0000
0000
0000
0000
0000
3303
0000
0000
0000
0000
0000
1020
0000
0000
,
0000
0000
0000
0030
0200
0000
0000
0000
0000
0300
0002
0000
0000
0000
0000
0003
0200
0000
0000
0000
0000
0000
0300
2000
0000
0000
0000
3000
0020
0000
0000
0000
,
0000
0030
0002
0000
0000
0000
0000
0000
0200
0000
0000
0000
0000
0303
0000
0000
0000
0000
0000
0020
0000
0000
0000
0000
0000
0000
2000
0000
0000
0000
0000
0000
,
3030
0000
0000
0000
0000
0200
0000
0000
0000
0000
0000
0022
0000
0000
0033
0000
0000
2002
0000
0000
0000
3303
0000
0000
0000
0000
0000
0000
0000
0210
0000
0000
,
0000
0000
0300
2000
0000
0000
0000
0000
0000
3000
0002
0000
0000
0000
0003
0200
0000
0000
0000
0000
0000
0300
2000
0000
0000
0000
3000
0002
0000
0000
0000
0000
,
0000
0003
2000
0000
0000
0000
0000
0002
0000
0000
0000
0000
3003
0000
0000
0000
0000
0000
0000
0000
0020
0000
0000
0000
0000
0000
0002
0000
0000
0000
0000
0033
,
0000
0000
0000
0000
0000
0000
0200
0000
0000
0000
0000
0000
0000
2002
0000
3003
0000
0000
0000
0022
0000
0333
0000
0000
0000
0000
0000
0000
0000
0000
0000
2100
,
0000
0000
0000
0000
0000
3000
0020
0000
0000
0000
0000
0030
0002
0000
0000
0000
0000
0003
0200
0000
0000
0000
0000
0300
2000
0000
0000
0000
0000
3000
0002
0000
,
0000
0000
0003
0000
0200
0000
0000
0000
0000
0000
2000
0000
0000
0000
0000
0000
0000
3300
0000
0000
0000
0000
2000
0000
0000
0000
0000
0020
0000
0000
0000
0000
,
0000
3030
0000
0000
0000
0000
0002
0000
0000
0000
0000
0000
0000
0220
0000
0000
0330
0000
0000
2000
0000
3003
0000
0000
0000
0000
0000
0202
0303
0000
0000
0220
,
0330
0000
0000
2002
3003
0000
0000
0000
2020
0000
0000
0000
0000
0000
0000
3030
0000
0000
0000
0202
0303
0000
0000
0000
0022
0033
0000
2200
3300
0000
0000
0220
,
0330
0000
0000
0000
0202
0303
0000
2020
3030
0000
0000
0000
0220
0000
0000
0000
0000
0000
0000
0000
0000
0000
0330
0000
0000
0000
0000
0000
0000
0000
0000
0000
,
0000
2020
3030
0000
0000
0000
0202
0303
0000
2020
3030
0000
0000
0000
0220
0330
0000
0000
2002
0000
3003
0000
0010
0000
0000
0000
0000
1000
0000
0010
0000
0202
,
0000
0303
0000
0000
0000
0010
0000
0000
0100
0000
0000
0001
0000
0000
0000
0000
0100
0000
0010
0000
2200
0000
3300
0000
0000
0000
0001
0000
0000
0010
0000
0000
,
0100
0000
0000
0000
0000
0000
0010
0000
1000
0000
0220
0000
0330
0000
0000
0000
0000
0001
0000
0000
0010
0000
0000
0100
0000
0000
0000
0000
1000
0000
0010
0000
,
2200
0000
3300
0000
0000
0000
0010
0000
0000
0001
0000
0000
1000
0000
0000
0000
0010
0000
0001
0000
0220
0000
0330
0000
0000
0000
0000
1000
0000
0000
0010
0000
,
0000
0001
0000
0000
0000
0000
0000
1000
0000
0100
0000
0022
0000
0033
0000
0000
0000
0100
0000
0000
0010
0000
0000
1000
0000
0000
0000
0000
0000
0000
0100
0000
,
0001
0000
2020
0000
3030
0000
0000
0100
0000
0000
1000
0000
0000
0001
0000
0000
0000
0000
0100
0000
1000
0000
0202
0000
0303
0000
0000
0000
0010
0000
0000
0001
,
0000
0000
1000
0000
0000
0000
0000
0001
0000
0010
0000
0202
0000
0303
0000
0000
0000
0010
0000
0000
1000
0000
0000
0100
0000
0000
0000
0000
0010
0000
0001
0000
,
2200
0000
3300
0000
0000
0000
0010
0000
0000
0100
0000
0000
0001
0000
0000
0000
0000
0000
1000
0000
0010
0000
0202
0000
0303
0000
0000
0000
1000
0000
0000
0010
,
0000
0000
0100
0000
0000
0000
0000
0001
0000
0010
0000
2200
0000
3300
0000
0000
0000
0001
0000
0000
0010
0000
0000
1000
0000
0000
0000
0001
0000
0010
0000
2002
,
0000
3003
0000
0000
0000
0000
0100
0000
0000
1000
0000
0000
0100
0000
0000
0000
0000
0000
0010
0000
0001
0000
2020
0000
3030
0000
0000
0000
0001
0000
0000
0010
,
0000
0000
0001
0000
0000
0000
0000
0000
0000
1000
0000
0010
0000
0202
0000
0303
0000
0000
0000
0010
0000
0000
1000
0000
0000
0001
0000
0000
0000
0000
0001
0000
,
0010
0000
0202
0000
0303
0000
0000
0000
0000
0000
0000
1000
0000
0010
0000
2100
0000
0002
0000
0000
0000
0000
0000
0000
0000
0000
0000
0000
0000
0000
0000
0000
,
3003
0000
0000
0000
0010
0000
2200
3300
0022
0000
0000
0000
0000
0000
0000
0033
0000
0000
0000
2020
3030
0000
0202
0000
0000
0000
0000
0303
0000
0000
0000
0220
,
0330
0000
0022
0000
0000
0033
0000
2100
0000
0000
0000
0021
0000
0000
0000
0000
0000
0000
0000
0000
0000
0000
0000
0000
0000
0000
0000
0000
0000
0000
0000
0000
,
3030
0000
0000
0000
0000
0000
0000
0202
0000
0000
0000
0000
0000
0000
0000
0000
0000
0303
0000
0000
0000
0220
0000
0000
0000
0000
0000
0000
0000
0330
0000
0000
,
0000
2020
0000
0000
0000
0000
0000
0000
3030
0000
0000
0202
0303
0000
0000
2020
0000
0000
0000
0000
0000
0000
0000
0000
0000
0000
0000
0000
0000
0000
0000
0000
,
0000
0000
0000
0000
0000
0000
0000
0000
0000
3030
0000
0000
0022
0033
0000
0000
0000
2200
0000
0000
0000
0000
0000
3300
0000
0000
0000
0202
0000
0303
0000
0000
,
2020
0000
0000
3030
0000
0000
0000
0220
0330
0000
0000
0000
2002
3003
0000
0000
2020
3030
0000
0000
0220
0000
0000
0000
0000
0000
0000
0000
0000
0000
0000
0000
,
0000
0000
0000
0000
0000
0000
0000
0000
0330
0000
0000
0000
0000
0000
0000
0202
0000
0000
0000
0000
0000
0000
0000
0000
0303
0000
0000
2020
0000
0000
0000
0000
,
0000
0000
0000
3030
0000
0000
0220
0000
0000
0000
0000
0000
0000
0330
0000
0101
0000
0000
0000
0000
0110
0000
0000
0000
0000
0000
1001
0000
0000
0000
0000
0000
,
1010
0000
0000
0000
0000
0000
1100
0000
0000
0000
0000
0101
0000
0000
0000
0000
2002
0000
0000
0000
0000
0000
3003
0000
0000
0000
0011
0000
0000
0000
0000
0000
,
1010
0000
0000
0000
0000
0000
0000
0000
0101
0000
0000
0000
0000
0000
0000
1100
0000
0000
0000
0000
0000
0000
0011
0000
0000
0000
0000
0000
1001
0000
0000
0000
,
0000
0000
0000
0220
0000
0000
0000
0000
0000
0000
0000
0000
0000
0330
0000
0000
0000
0000
1100
0000
0000
0000
0000
0000
0000
0110
0000
0000
0000
0000
0000
0000
,
0000
0101
0000
0000
0000
0000
0000
0000
1010
0000
0000
0000
0000
0000
0000
0000
0011
0000
0000
0000
0000
0000
0000
1100
0000
0000
0000
0000
0000
0000
0000
0202
,
0000
0000
0000
0303
0000
0000
0000
0000
0000
0000
0000
0000
0000
0000
0000
0022
0033
0000
2200
3300
2002
3003
0000
0000
0000
0000
0000
0000
0000
0000
0000
0000
,
0000
0000
0000
0000
0000
0000
0000
0022
0000
0000
0000
0000
0000
0000
0033
0000
1100
0000
0000
0000
0000
0000
0000
0000
0000
0101
0000
0000
0000
0000
0000
0000
,
0000
0000
1010
0000
0000
0000
0000
0000
0000
0000
0000
0110
0000
0000
0000
0000
0000
0000
0000
1001
0000
0000
0000
0000
0000
0000
0000
0220
0000
0000
0000
0000
,
0000
0000
0000
0000
0000
0000
0000
0000
0000
0330
0000
0000
1001
0000
0000
0000
0000
0000
0000
0000
0000
0011
0000
0000
0000
0000
0000
0000
0000
0000
0000
1010
,
0000
0000
0000
0000
0000
0000
0000
0000
0000
1100
0000
0000
0000
0000
0000
0000
0000
0000
0101
0000
0000
0000
0000
0000
0000
0000
0000
0110
0000
0000
0000
0000
,
0000
0000
0000
0000
0000
2002
0000
0000
0000
0000
0000
0000
0000
0000
0000
0000
0000
0000
0000
0000
3003
0000
0000
0000
0000
0101
0000
0000
0000
0000
0000
0000
,
0000
0000
0000
0000
0000
0011
0000
0000
0000
0000
0000
0000
0000
0000
0000
0000
0000
1010
0000
0000
0000
0000
0000
0000
0000
0000
0000
0110
0000
0000
0000
0000
,
0000
0000
0000
0000
0000
1001
0000
0000
0000
0000
0000
0000
0000
0000
0000
1010
0000
0000
0000
0000
0000
0000
0000
0000
0000
2200
0000
0000
0000
0000
0000
0000
,
0000
0000
0000
0000
0000
0000
0000
0000
0000
0000
0000
0000
0000
3300
0000
0202
0000
0000
0000
0000
0000
0000
0000
0000
0000
0000
0303
0000
0000
0000
0000
2020
,
0000
0000
0000
0000
0000
0000
0000
0000
0000
3030
0000
0000
0000
0000
0220
0000
0000
0000
0000
0000
0000
0000
0330
0000
0000
2001
0000
3000
0000
0000
0100
0000
,
0000
0000
0000
0001
0000
0000
0000
0000
0010
0000
0000
0000
0000
0001
0000
0000
0000
0100
0000
0000
0000
0000
0001
0000
0000
0000
1000
0000
0000
0000
0000
0200
,
0000
0000
0000
0002
0000
0000
0000
0000
0000
0000
0303
0000
0000
0020
0000
0000
0000
2000
0000
0000
0000
0000
0000
3030
0000
0000
0200
0000
0000
0000
0000
0022
,
0000
0033
0000
2020
0000
0000
3330
0000
0000
0000
0000
0000
0010
0000
0000
0000
0000
0001
0000
0000
0000
0100
0000
0000
0000
0000
1000
0000
0000
0000
0001
0000
,
0000
0000
0000
0100
0000
0000
0000
0002
0000
0000
0000
0020
0000
0000
0000
0000
0000
0033
0000
0000
0000
0020
0000
0000
0000
0200
0000
0000
0000
0000
0330
0000
,
0000
0000
0200
0000
0000
0000
0000
2020
0000
3030
0000
0022
0000
0000
0333
0000
0000
0000
0000
0000
1000
0000
0000
0000
0000
0001
0000
0000
0000
0100
0000
0000
,
0000
0000
0010
0000
0000
0000
0000
1000
0000
0000
0000
0010
0000
0000
0000
0000
2000
0000
0000
0000
0200
0000
0000
0000
0000
0000
0000
3300
0000
0200
0000
0000
,
0000
0000
0020
0000
0000
0000
0000
0000
0330
0000
0000
0000
0020
0000
0000
0000
0202
0000
0303
0000
0000
2002
0000
0000
3033
0000
0000
0000
0000
0000
0001
0000
,
0000
0000
0000
0010
0000
0000
0000
0100
0000
0000
0000
0000
0001
0000
0000
0000
0000
1000
0000
0000
0000
0100
0000
0000
0000
0002
0000
0000
0000
0000
0020
0000
,
0000
0000
0000
0033
0000
0000
2000
0000
0000
0000
0000
0200
0000
0000
0000
0000
3300
0000
0000
0200
0000
0000
0000
0022
0000
0033
0000
0000
2002
0000
0000
3303
,
0000
0000
0000
0000
0000
0010
0000
0000
0000
0000
0001
0000
0000
0000
0100
0000
0000
0000
0010
0000
0000
0000
0000
1000
0000
0000
0000
0010
0000
0000
0000
0000
,
0200
0000
0000
0000
0002
0000
0000
0000
0000
0000
0000
0303
0000
0000
0020
0000
0000
0000
0000
2000
0000
0000
0000
0000
3030
0000
0000
2000
0000
0000
0000
0000
,
0022
0000
0033
0000
0220
0000
0000
0000
3330
0000
0000
0000
0000
0010
0000
0000
0000
0000
0100
0000
0000
0000
0000
0010
0000
0000
0000
0000
1000
0000
0000
0000
,
0000
0100
0000
0000
0000
0001
0000
0000
0000
2000
0000
0000
0000
0200
0000
0000
0000
0000
3300
0000
0000
0000
0000
0020
0000
0000
0000
0002
0000
0000
0000
0000
,
0033
0000
0000
0000
0200
0000
0000
0000
2020
0000
3030
0000
0022
0000
0000
0333
0000
0000
0000
0202
0303
0000
0000
0022
0033
0000
0000
2200
3300
0000
0220
0000
,
0000
0000
0330
0000
0000
0000
0000
0000
0000
0000
2200
3300
0000
0022
0033
0000
0000
0202
0303
0000
0000
2020
3030
0000
0000
0220
0330
0000
2020
3030
0000
0000
,
0022
0000
0000
0000
0000
0000
0000
0033
0000
0000
0000
0000
0000
0000
0000
0000
0000
0000
0000
0000
0000
0000
0000
0202
0303
0000
0022
0033
0000
2020
3030
0000
,
0000
2000
3200
0320
0032
0023
0230
2300
3000
0000
0000
0010
0000
1000
0000
0100
0000
0000
0011
0000
0100
0000
0000
1000
0000
0010
0000
0000
0001
0000
0100
0000
,
0000
1000
0000
0101
0000
0000
0010
0000
0100
0000
0000
1000
0000
0010
0000
0000
0001
0000
0100
0000
0000
0001
0000
0000
1100
0000
0000
0010
0000
0000
0100
0000
,
0000
1000
0000
0010
0000
0000
0001
0000
0000
0010
0000
1000
0000
0000
0110
0000
0000
1000
0000
0001
0000
0000
0010
0000
0000
0100
0000
0000
1000
0000
0000
0010
,
0000
0000
0001
0000
0000
0100
0000
0000
1010
0000
0000
0001
0000
0000
1000
0000
0000
0000
0010
0000
0000
1000
0000
0000
0100
0000
0000
0001
0000
0000
0010
0000
,
0000
1100
0000
0000
0010
0000
0000
1000
0000
0000
0001
0000
0000
0000
1000
0000
0000
0010
0000
0000
0000
0100
0000
0000
0000
0001
0000
0000
0000
1010
0000
0000
,
0000
0100
0000
0000
0000
0010
0000
0000
0001
0000
0000
0000
0100
0000
0000
1000
0000
0000
0000
0010
0000
0000
0100
0000
0000
0000
0011
0000
0000
0000
1000
0000
,
0000
0100
0000
0000
0000
1000
0000
0000
0000
0001
0000
0000
0000
0100
0000
0000
0000
1000
0000
0000
0000
0001
0000
0000
0000
1010
0000
0000
0000
0100
0000
0000
,
0000
0010
0000
0000
0000
0001
0000
0000
0000
1000
0000
0000
0000
0010
0000
0000
0000
0001
0000
0000
0000
0100
0000
0000
0000
1010
0000
0000
0000
0100
0000
0000
,
0000
0010
0000
0000
0000
0100
0000
0000
0000
0000
0010
0000
0000
0000
0100
0000
0000
0000
0000
1000
0000
0000
0000
0001
0000
0000
0000
0000
1000
0000
0000
0000
,
0011
0000
0000
0000
0000
1000
0000
0000
0000
0100
0000
0000
0000
0000
0010
0000
0000
0000
0100
0000
0000
0000
0000
0001
0000
0000
0000
0000
0010
0000
0000
0000
,
0000
1000
0000
0000
0000
0110
0000
0000
0000
0000
1000
0000
0000
0000
0000
0001
0000
0000
0000
0000
0010
0000
0000
0000
0100
0000
0000
0000
0000
0011
0000
0000
,
0000
0000
1000
0000
0000
0000
0000
0010
0000
0000
0000
0100
0000
0000
0000
0000
1000
0000
0000
0000
0000
0011
0000
0000
0000
0000
0000
0100
0000
0000
0000
0000
,
0010
0000
0000
0000
0000
1000
0000
0000
0000
0101
0000
0000
0000
0000
0010
0000
0000
0000
0000
0100
0000
0000
0000
0000
0000
0010
0000
0000
0000
0000
1100
0000
,
0000
0000
0000
0010
0000
0000
0000
0000
0100
0000
0000
0000
0000
0000
1000
0000
0000
0000
0000
0011
0000
0000
0000
0000
0100
0000
0000
0000
0000
0010
0000
0000
,
0000
0000
0000
1000
0000
0000
0000
0000
0010
0000
0000
0000
0000
0101
0000
0000
0000
0000
0010
0000
0000
0000
0000
0000
0001
0000
0000
0000
0000
0000
0100
0000
,
0000
0000
0000
1001
0000
0000
0000
0000
0000
0010
0000
0000
0000
0000
0000
0001
0000
0000
0000
0000
1000
0000
0000
0000
0000
0110
0000
0000
0000
0000
0000
0001
,
0000
0000
0000
0000
0000
0010
0000
0000
0000
0000
0100
0000
0000
0000
0000
2002
0000
0000
0000
0000
0000
0000
0000
0000
0000
0000
0000
0000
0000
0000
0000
0000
,
0000
0000
0000
0000
,
0000
0000
0000
0000
0000
0000
0000
0000
0000
3003
0010
0000
0001
0000
0000
0010
0000
0100
0000
0000
0001
0000
1000
0000
0000
0010
0000
0000
0100
0000
1000
0000
,
0000
0001
0000
0010
0000
0000
0001
0000
1000
0000
0000
0010
0000
0001
0000
0000
1000
0000
0010
0000
0000
0001
0000
1000
0000
0000
0100
0000
0010
0000
0000
0001
,
0000
1000
0000
0000
0001
0000
0010
0000
0000
0001
0000
0010
0000
0000
0001
0000
1000
0000
0000
0100
0000
1000
0000
0000
0100
0000
1000
0000
0000
0100
0000
0010
,
0000
0000
0100
0000
0010
0000
0000
0001
0000
0010
0000
0000
0100
0000
1000
0000
0000
0100
0000
0010
0000
0000
0001
0000
0010
0000
0000
0100
0000
1000
0000
0000
,
0100
0000
1000
0000
0000
0100
0000
1000
0000
0000
0100
0000
0000
0010
0000
0000
0000
0001
0000
0000
0010
0000
0000
0001
0000
0000
0010
0000
0000
0001
0000
0000
,
0010
0000
0000
0000
0100
0000
0000
0010
0000
0000
0100
0000
0000
0010
0000
0000
0100
0000
0000
1000
0000
0000
0100
0000
0000
0000
1000
0000
0000
0100
0000
0000
,
0000
0001
0000
0000
0000
0000
0100
0000
0000
0000
0000
0001
0000
0000
0000
0100
0000
0000
1000
0000
0000
0000
0000
0100
0000
0000
0000
0000
0001
0000
0000
0000
,
0000
0100
0000
0000
0000
0000
0010
0000
0000
0000
0000
0000
0000
1000
0000
0000
0000
0001
0000
0000
0000
0000
0000
0000
0000
0000
0100
0000
0000
0000
0000
0000
,
0001
0000
0000
0000
0000
0000
0100
0000
0000
0000
0000
0000
0000
1000
0000
0000
0000
0000
0000
0000
0001
0000
0000
0000
0000
0000
0100
0000
0010
0000
0000
2002
,
3003
0000
0000
0000
0220
0000
0000
0330
0000
0000
0000
0000
0000
0000
0000
0000
0000
0000
0000
0002
0003
0000
0020
0030
0000
0002
0003
0000
0020
0030
0000
0002
,
0003
0000
0020
0030
0000
0002
0003
0000
0020
0030
0000
0200
0300
0000
2000
0000
0020
3030
0000
0002
0003
0000
0020
0030
0000
0200
0000
0000
0002
0303
0000
0000
,
0000
2000
0000
0000
0002
3003
0000
0020
0030
0000
0200
0000
0000
2000
3300
0000
0020
0030
0000
0200
0300
0000
2000
3000
0000
0200
0300
0000
2000
3000
0000
0200
,
0300
0000
2000
3000
0000
0200
0302
0000
0020
0033
0000
0200
0300
0000
0020
0030
2000
0000
0200
3300
0000
0020
0030
0000
0002
0003
2000
0000
0200
3300
0000
0020
,
0030
0000
0200
0300
0022
0000
0000
0000
0000
0000
0000
0000
0000
0000
0000
0000
0000
0000
0000
0000
0000
0000
0000
0000
0000
0000
0000
0000
0000
0000
0000
0000
,
0000
0000
0000
0000
0000
0000
0000
0000
0000
0000
0000
0000
0000
0000
0033
0000
0000
0000
0000
0000
0220
0000
0000
0000
0000
0330
0000
0000
2200
0000
0000
0000
,
0000
0000
0000
0000
,
0000
0000
0000
0000
0000
0000
0000
0000
3300
0000
0000
0000
0000
0002
0000
0000
0000
0000
0000
0000
0003
0020
0000
0000
0000
0000
0000
0000
0000
0000
0000
0030
,
0002
0000
0000
0000
0000
0000
0000
0000
0000
0003
2000
0000
0000
0000
0000
0000
0000
0000
0000
0000
0000
0000
0000
0000
0000
0000
3000
0020
0000
0000
0000
0000
,
0000
0000
0000
0000
0030
0200
0000
0000
0000
0000
0300
2000
0000
0000
0000
0000
0000
0000
3000
0002
0000
0000
0000
0000
0000
0003
0200
0000
0000
0000
0000
0000
,
0300
2000
0000
0000
0000
0000
3000
0002
0000
0000
0000
0000
0000
0000
0003
0200
0000
0000
0000
0000
0000
0300
0002
0000
0000
0000
0000
0000
0003
2000
0000
0000
,
0000
0000
0000
3000
0020
0000
0000
0000
0000
0000
0000
0030
2200
0000
0000
0000
0000
0000
0000
0000
0000
0000
0000
0000
0000
0000
0000
0000
0000
0000
0000
0000
,
0000
0000
0000
0000
,
3300
0000
0000
0000
0220
0000
0000
0000
0000
0000
0330
0000
0000
0022
0000
0000
0000
0000
0000
0000
0000
0000
0000
0000
0000
0000
0000
0000
0000
0000
0000
0000
,
0000
0000
0000
0000
,
0000
0000
0033
0000
0000
0000
0000
0000
0000
0200
0000
0000
0000
0000
0000
0000
0300
0002
0000
0000
0000
0000
0000
0000
0000
0000
0000
0000
0000
0003
0020
0000
,
0000
0000
0000
0000
0000
0000
0000
0000
0030
0200
0000
0000
0000
0000
0000
0000
0000
0000
0300
2000
0000
0000
0000
0000
0000
0000
0000
0000
0000
0000
0000
0000
,
3000
0020
0000
0000
0000
0000
0000
0000
0000
0000
0000
0030
0002
0000
0000
0000
0000
0000
0000
0000
0000
0000
0000
0000
0000
0003
0200
0000
0000
0000
0000
0000
,
0000
0000
0000
0000
0300
0020
0000
0000
0000
0000
0000
0000
0000
0000
0000
0000
0000
0030
2000
0000
0000
0000
0000
0000
0000
0000
0000
0000
3000
0002
0000
0000
,
0000
0000
0000
0000
0000
0000
0000
0000
0000
0000
0003
0200
0000
0000
0000
0000
0000
0000
0000
0000
0000
0000
0300
2000
0000
0000
0000
0000
0000
0000
0000
0000
,
3000
0002
0003
0000
0020
0030
0000
0200
0300
0000
2000
3000
0000
0200
0300
0000
0020
0030
0000
0002
0003
0000
0020
0030
0000
0200
0300
0000
2000
3000
0000
0200
,
0300
0000
0020
0030
0000
0002
0003
0000
0020
0030
0000
0200
0300
0000
2000
3000
0000
0200
0300
0000
0020
0030
0000
0002
0003
0000
0020
0030
0000
0200
0300
0000
,
2000
3002
0000
0000
0000
0000
0000
0000
0000
0000
0000
0000
0000
0000
2003
0000
0000
0000
0000
0000
0000
0000
0000
0000
0000
0000
0000
3020
0000
0000
0000
0000
,
0000
0000
0000
0032
0000
0000
0000
0000
0000
0000
0203
0000
0000
0000
0000
0000
,
2300
0000
0000
0000
0000
0000
0000
0000
0000
0000
0000
0000
3002
0003
0000
0020
0030
0000
0200
0300
0000
2000
3000
0000
0002
0003
0000
0020
0030
0000
0200
0300
,
0000
2000
3000
0000
0002
0003
0000
0020
0030
0000
0200
0300
0000
2000
3000
0000
2000
3000
0000
0200
0300
0000
0020
0030
0000
0002
0003
0000
2000
3000
0000
0200
,
0300
0000
0020
0030
0000
0002
0003
0000
2000
3000
0000
0200
0300
0000
0020
0030
0000
0002
0003
2000
0000
0000
0000
0000
0000
0000
0000
0000
0000
0000
0000
3002
,
0000
0000
0000
0000
0000
0000
0203
0000
0000
0000
0000
0320
0000
0000
0000
0000
,
0000
0000
0000
0000
0000
2030
0000
0000
0000
0000
0000
0000
0000
0000
0000
0000
3020
0000
0000
0000
0000
0000
0000
0000
0000
0000
0000
0000
0000
0000
0000
0000
,
0030
0000
0000
0000
0000
2002
0000
0000
3003
0000
0000
0000
0000
0000
0000
0000
0000
0000
0000
0000
0000
0000
0000
0000
0000
0000
0000
0000
0000
0000
0000
0000
;
